Movies - Other

The Legend Of Hercules 2014 English Movies WebRip XViD New Source with Sample ~ ☻rDX☻

  • Download 5x Faster
  • Download torrent
  • Direct Download
  • Rate this torrent +  |  -

Torrent info

Name:The Legend Of Hercules 2014 English Movies WebRip XViD New Source with Sample ~ ☻rDX☻

Total Size: 708.06 MB

Magnet: Magnet Link

Seeds: 0

Leechers: 0

Stream: Watch Full Movie @ Movie4u

Last Updated: 2018-04-18 02:17:53 (Update Now)

Torrent added: 2014-03-26 05:34:19



CyberGhost VPN For Torrents

Torrent Files List


The Legend Of Hercules 2014 English Movies WebRip XViD New Source ~ ☻rDX☻.mkv (Size: 708.06 MB) (Files: 2)

 The Legend Of Hercules 2014 English Movies WebRip XViD New Source ~ ☻rDX☻.mkv

698.85 MB

 Sample ~ The Legend Of Hercules 2014 English Movies WebRip XViD New Source ~ ☻rDX☻.mkv

9.21 MB
 

tracker

leech seeds
 

Torrent description

----------------------------------------------------------------
The Legend Of Hercules 2014 English Movies WebRip XViD New Source with Sample ~ ☻rDX☻ preview 1

The Legend Of Hercules 2014 English Movies WebRip XViD New Source with Sample ~ rDX

Please check SCREEN SHOTS first :

http://moviesreview.co.nr/2014/3/TheLegendOfHercules/1.html
http://moviesreview.co.nr/2014/3/TheLegendOfHercules/2.html
http://moviesreview.co.nr/2014/3/TheLegendOfHercules/3.html
http://moviesreview.co.nr/2014/3/TheLegendOfHercules/4.html
http://moviesreview.co.nr/2014/3/TheLegendOfHercules/5.html
http://moviesreview.co.nr/2014/3/TheLegendOfHercules/6.html
http://moviesreview.co.nr/2014/3/TheLegendOfHercules/7.html
http://moviesreview.co.nr/2014/3/TheLegendOfHercules/8.html
http://moviesreview.co.nr/2014/3/TheLegendOfHercules/9.html
http://moviesreview.co.nr/2014/3/TheLegendOfHercules/10.html

All rDX torrents are Seeding From the 1Gbps Seedbox 24X7

POSTER:

The Legend Of Hercules 2014 English Movies WebRip XViD New Source with Sample ~ ☻rDX☻ preview 0

Format : Matroska
Format version : Version 4 / Version 2
File size : 699 MiB
Duration : 1h 34mn
Overall bit rate : 1 034 Kbps
Movie name : The Legend Of Hercules 2014 English Movies WebRip XViD ~ rDX ~

Video
ID : 1
Format : MPEG-4 Visual
Format profile : Advanced [email protected]
Format settings, BVOP : Yes
Format settings, QPel : No
Format settings, GMC : No warppoints
Format settings, Matrix : Default (H.263)
Codec ID : V_MS/VFW/FOURCC / XVID
Codec ID/Hint : XviD
Duration : 1h 34mn
Bit rate : 886 Kbps
Width : 624 pixels
Height : 352 pixels
Display aspect ratio : 16:9
Frame rate mode : Constant
Frame rate : 25.000 fps
Color space : YUV
Chroma subsampling : 4:2:0
Bit depth : 8 bits
Scan type : Progressive
Compression mode : Lossy
Bits/(Pixel*Frame) : 0.161
Stream size : 598 MiB (86%)
Title : ~ rDX ~
Writing library : XviD 64
Default : Yes
Forced : No

Audio
ID : 2
Format : MPEG Audio
Format version : Version 1
Format profile : Layer 3
Codec ID : A_MPEG/L3
Codec ID/Hint : MP3
Duration : 1h 34mn
Bit rate mode : Constant
Bit rate : 128 Kbps
Channel(s) : 2 channels
Sampling rate : 48.0 KHz
Compression mode : Lossy
Stream size : 86.5 MiB (12%)
Title : ~ rDX ~
Default : Yes
Forced : No

related torrents

Torrent name

health leech seeds Size
 


comments (0)

Main Menu